Keeping Up with the Joneses 2016 HDCAM x264 AAC 450MB

Keeping Up with the Joneses (2016)
105 min|Action, Comedy|21 Oct 2016
5.8Rating: 5.8 / 10 from 2,510 users
A suburban couple becomes embroiled in an international espionage plot when they discover that their seemingly perfect new neighbors are government spies.

Click Here to Download Keeping Up with the Joneses 2016 HDCAM x264 AAC 450MB

2b9645d00bf57c2af0dd214259027244.th.png 81824d772d92aa4746bc1a45ff79b52b.th.png b322a88501dda3f6b7986ae1d9616c57.th.png df415c9ca155a31e83b1fd1cbca2abb3.th.png d43e3256d9ee79dd5275e487f2d8c107.th.png cd8332f6f74dd97efc5281a1c8d5629a.th.png 3369408ddfb4429b2cd1589c4c9761d4.th.png

Video
ID : 1
Format : AVC
Format/Info : Advanced Video Codec
Format profile : [email protected]
Format settings, CABAC : Yes
Format settings, ReFrames : 4 frames
Codec ID : V_MPEG4/ISO/AVC
Duration : 1 h 44 min
Bit rate : 472 kb/s
Width : 720 pixels
Height : 320 pixels
Display aspect ratio : 2.25:1
Frame rate mode : Variable
Frame rate : 29.914 FPS
Color space : YUV
Chroma subsampling : 4:2:0
Bit depth : 8 bits
Scan type : Progressive
Bits/(Pixel*Frame) : 0.068
Stream size : 354 MiB (78%)
Title : Lesnar
Writing library : x264 core 142 r2491 24e4fed
Encoding settings : cabac=1 / ref=3 / deblock=1:0:0 / analyse=0x3:0x113 / me=hex / subme=7 / psy=1 / psy_rd=1.00:0.00 / mixed_ref=1 / me_range=16 / chroma_me=1 / trellis=1 / 8x8dct=1 / cqm=0 / deadzone=21,11 / fast_pskip=1 / chroma_qp_offset=-2 / threads=12 / lookahead_threads=2 / sliced_threads=0 / nr=0 / decimate=1 / interlaced=0 / bluray_compat=0 / constrained_intra=0 / bframes=3 / b_pyramid=2 / b_adapt=1 / b_bias=0 / direct=1 / weightb=1 / open_gop=0 / weightp=2 / keyint=300 / keyint_min=30 / scenecut=40 / intra_refresh=0 / rc_lookahead=40 / rc=abr / mbtree=1 / bitrate=472 / ratetol=1.0 / qcomp=0.60 / qpmin=0 / qpmax=69 / qpstep=4 / vbv_maxrate=17500 / vbv_bufsize=17500 / nal_hrd=none / filler=0 / ip_ratio=1.40 / aq=1:1.00
Language : English
Default : Yes
Forced : No
Color range : Limited
Color primaries : BT.601 NTSC
Transfer characteristics : BT.709
Matrix coefficients : BT.601

Audio
ID : 2
Format : AAC
Format/Info : Advanced Audio Codec
Format profile : LC
Codec ID : A_AAC
Duration : 1 h 44 min
Bit rate : 129 kb/s
Channel(s) : 2 channels
Channel positions : Front: L R
Sampling rate : 44.1 kHz
Frame rate : 43.066 FPS (1024 spf)
Compression mode : Lossy
Delay relative to video : -23 ms
Stream size : 96.7 MiB (21%)
Title : Lesnar
Language : English
Default : Yes
Forced : No